#TITLE:Thund0R KatZ!!1;
#SUBTITLE:;
#ARTIST:Thanks 2 Moogy;
#TITLETRANSLIT:;
#SUBTITLETRANSLIT:;
#ARTISTTRANSLIT:;
#CREDIT:;
#BANNER:banner.jpg;
#BACKGROUND:background.jpg;
#LYRICSPATH:;
#CDTITLE:CBicon.png;
#MUSIC:cool.mp3;
#OFFSET:-0.001;
#SAMPLESTART:69.350;
#SAMPLELENGTH:12.000;
#SELECTABLE:YES;
#BPMS:0.000=300.000;
#STOPS:;
#BGCHANGES:272.000=spray copy.jpg=1.000=0=0=1,
277.000=banner.jpg=1.000=0=0=1,
278.000=-random-=1.000=0=0=1,
279.500=spray copy.jpg=1.000=0=0=1,
291.750=background.jpg=1.000=0=0=1,
99999=-nosongbg-=1.000=0=0=0 // don't automatically add -songbackground-
;
// cache tags:
#FIRSTBEAT:0.000;
#LASTBEAT:765.500;
#SONGFILENAME:Songs/Music V.I.P ^_^/Thund0r/Toothpaste.sm;
#HASMUSIC:1;
#HASBANNER:1;
#MUSICLENGTH:150.360;
// end cache tags

//---------------dance-single - ----------------
#NOTES:
     dance-single:
     :
     Hard:
     56:
     1.000,1.000,1.000,1.000,0.339,1147.000,219.000,615.000,0.000,158.000:
0200
0000
2301
3000
0220
2300
0000
3032
,
0203
2020
3330
2000
0020
3230
0300
0020
,
0030
2200
0300
3022
0033
0001
0110
0202
,
2303
3102
0003
0002
0203
0320
0032
2003
,
3000
2000
3020
0032
2003
3000
2020
3031
,
0120
1000
0030
0001
1102
0003
2220
3331
,
0000
0202
0303
0000
0202
0303
2200
3310
,
0000
0022
0033
2200
3301
0220
2330
3020
,
0030
0020
0030
0201
1300
1000
0001
0000
,
0000
0000
1100
0200
2301
3000
0000
0002
,
0003
0020
2030
3002
1003
2000
3000
2102
,
3003
0010
0200
0301
0001
0210
0301
0000
,
2010
3101
1000
1002
1003
1020
1030
1002
,
0003
2001
3101
1020
2030
3100
1002
0003
,
2001
3100
1200
0300
2100
3110
0000
0000
,
0011
0101
0000
2200
3300
1101
1000
2202
,
3303
0001
0000
0000
0022
0033
0000
0022
,
0033
0000
0000
0011
0000
2200
3300
0000
,
0020
0030
0201
2301
3001
0202
0303
0101
,
2100
0000
3010
0000
2200
3300
0001
0000
0010
0000
0200
0000
0300
0000
1000
0000
,
0100
0010
0001
0010
0100
1000
0100
0010
,
0001
0010
0100
0001
1010
0000
0010
2001
,
3001
1020
0030
1002
0003
1012
2003
3002
,
0003
0200
0300
2200
3300
0000
0000
0220
,
0330
0122
0033
0100
2200
3322
0033
2202
,
3303
2202
3303
2200
3310
0000
0000
2210
,
3301
1002
0003
0012
2203
3000
0320
2030
,
3000
0120
1232
0303
0220
0330
2202
3303
,
2001
3000
0220
0332
1103
1101
0000
0220
,
2332
3003
1001
2222
3333
2222
3333
2222
,
3333
2222
3333
1111
1001
1001
1001
1001
,
1111
2222
3333
2222
3333
2222
3333
1100
,
0100
1000
0100
1000
0100
1000
1000
1000
,
0010
0010
1000
0010
1000
0001
0010
0200
,
1300
0000
0100
0010
0002
2003
3000
0011
,
0100
0000
0000
1000
0000
0000
1000
0000
0100
0000
0010
0000
0001
0000
0010
0000
0100
0000
1000
0000
0100
0000
0010
0000
,
0001
0010
0100
1000
0100
0010
0001
0010
0100
1000
0100
0010
,
0001
0000
0010
0000
0100
0000
1000
0000
0100
0000
0010
0000
0001
0000
0000
0001
0000
0000
0001
0000
0000
0011
0000
0000
,
0001
0011
0221
0330
1001
0110
0020
0230
,
0300
1002
1013
0100
2001
3200
0320
0130
,
0200
0300
0102
2103
0000
3022
0003
0031
,
2010
0000
0000
0000
0000
0000
3000
0000
0000
1020
0000
0000
0030
0000
2000
0000
3001
0000
0100
0000
0010
0000
1000
0000
,
0002
0203
0320
1030
0001
0100
0020
2030
3002
0203
0310
2000
,
3001
0100
0010
1000
0001
0100
0010
0001
0010
0200
2300
3100
,
0010
0001
0100
0010
1000
0001
0100
0010
1000
0001
0100
0010
,
1000
0000
0100
2002
0010
0000
0000
0000
0010
0000
0200
0000
0300
0000
0200
0000
0310
0000
0000
0000
0000
0000
0200
0000
,
0300
0010
0000
0000
0100
0010
0000
0000
0100
0010
0000
0000
,
0100
0010
0000
0000
0100
0010
0000
0020
0130
0000
0100
0010
,
0000
0020
0130
0010
0000
0010
0000
0100
0010
0000
0000
0100
,
0010
0000
0000
0100
0010
0000
0000
0100
0020
0030
0000
0000
,
0200
0300
0200
0320
0030
0200
0300
0100
0010
0100
0000
0000
,
0000
0000
0000
0000
0000
0200
0310
0000
0000
0200
0320
0030
,
0000
0000
0000
0100
0000
0000
0020
0130
0000
0000
0100
0010
,
0000
0000
0000
0000
0100
0000
0020
0000
0030
0000
0000
0000
0100
0000
0020
0000
0030
0000
3003
0000
0000
1111
0000
0000
,
0000
0000
1111
0000
0000
0000
1111
0000
0000
0000
1111
0000
0000
1000
0100
0010
,
0001
0010
0100
1000
0100
0022
0000
0000
0000
0033
0000
0000
0000
0000
0000
0000
,
0000
0000
2222
3303
0000
0030
1000
0010
,
0000
1000
0010
0000
1010
0101
1100
0111
,
1100
0011
2200
3322
1133
0011
0110
0011
,
1100
0111
1110
0000
1111
1111
1101
1001
,
0022
0000
0033
0000
,
2012
0000
3003
1000
0010
1000
0010
1000
,
0010
1000
0000
0011
1000
0022
0033
1000
,
0001
0100
0010
1000
0001
1110
0000
1110
,
0000
1110
0000
2110
3000
0000
0001
0000
,
0010
1000
0100
0010
,
0001
0000
0010
0000
0100
0000
1000
1000
,
1000
1000
1000
1000
1000
1000
0000
0000
,
1001
1001
1111
1001
1001
0000
1111
0110
,
0110
0110
0110
0000
0000
1000
0010
1000
,
0001
0100
0010
1000
0001
0100
0010
1000
,
0001
0100
0010
1000
0001
0200
0310
1000
,
0001
0100
0020
1030
0001
1000
0100
1000
,
0100
0000
0000
1000
0000
0000
0001
0000
0000
1000
0000
0000
0010
0000
0000
0100
0001
0000
0010
0000
0100
0000
1000
0000
,
0100
0000
0010
0000
0001
0000
0010
0000
0100
0000
1000
0000
0100
0000
0010
0000
0001
0000
1000
0000
0000
0100
0000
0000
,
0010
1000
0001
0100
0010
1000
0001
0100
,
0020
1030
0001
0100
2010
3000
0001
0220
,
0330
1002
0003
0220
0330
1002
2003
3120
,
1030
1002
1003
0000
2001
3120
0230
0301
,
0001
2001
3000
0100
0100
0220
0330
0000
,
0000
2200
3302
0003
1120
2030
3120
2030
,
3001
0122
2233
3302
1003
1002
0003
0200
,
0310
0120
0030
1002
2003
3002
0003
0200
,
0320
0030
2000
3002
2003
3120
0030
2000
,
3020
2030
3002
0203
0320
0230
2300
3002
,
2003
0000
3220
0330
2000
3002
0203
0300
,
0020
0230
2300
3002
2003
3200
0300
0000
,
0201
0320
0030
0000
2001
3220
0300
0030
,
0010
2000
3002
2003
3002
0203
0320
0130
,
1000
0001
0100
0010
1000
0002
0103
0010
,
1000
0001
0100
0010
0001
0020
0130
1000
,
0100
0010
0001
0010
0100
1000
0100
0100
,
1000
0001
0100
0010
1000
0001
0200
0320
,
0030
1002
0003
0100
0020
2030
3002
0203
,
0310
1000
0220
0330
1000
0001
0100
0010
,
1000
0001
0100
0010
0202
1323
0031
0000
,
0100
1000
0001
0100
0010
1001
1001
1001
,
0110
0110
0110
1000
0001
0100
0010
1000
,
0002
0203
0300
0010
1000
0001
0100
0010
,
0002
0003
0010
0100
1000
0100
0010
0001
,
0010
0100
1000
0200
0320
0031
0010
0100
,
1000
0100
0010
1000
0001
0100
0010
1000
,
0001
0100
0010
0001
0010
0100
0100
1000
,
0001
0200
0311
1000
0001
1000
0010
0100
,
0001
1000
0100
0010
1000
0001
0100
0010
,
2000
3002
0003
0200
0310
1000
0001
0200
,
2300
3002
0203
0320
2030
3002
0203
0310
,
1000
0001
0200
0310
1000
0000
0100
0012
,
2003
3200
0320
2030
3002
0103
0010
1000
,
0001
0200
0320
2030
3001
0200
0302
1003
,
0100
0010
0002
0003
2000
3000
0200
0300
,
0002
2003
3000
0000
0020
0030
1000
0000
,
0100
0002
0003
1000
0002
0003
0200
0320
,
0030
2000
3000
0001
0200
0320
0030
2000
,
3002
0003
2000
3000
0100
0020
0030
1000
,
0002
0003
1000
0002
0203
0300
0020
2030
,
3000
0001
0200
0300
0020
2030
3000
0002
,
0003
0100
0020
0030
1000
0002
0003
0100
,
0010
0002
2003
3000
0002
2003
3200
0300
,
0001
0100
1000
0001
0100
0010
1000
0001
,
0100
0010
1000
0001
0100
0010
1000
0001
,
0100
0010
1000
0001
0100
0020
2030
3002
,
0003
0200
0300
0001
2000
3000
0002
0003
,
0100
0000
0020
2030
3002
0003
0200
0310
,
2000
3002
0003
0100
0010
2000
3000
0001
,
0200
0310
2000
3002
0003
0100
0010
0200
,
0300
2000
3000
0002
0003
0200
0320
0030
,
1000
0002
0003
0100
0010
2000
3000
0002
,
0203
0320
0030
2000
3000
0001
0200
0320
,
0230
2300
3020
0030
0002
0003
0200
0300
,
0020
0030
2000
3000
0002
0003
0100
0000
,
0001
0000
2000
3000
0200
0300
0002
0003
,
2000
3002
0003
0200
0300
2000
3000
0001
,
0200
0320
0030
1000
0002
0003
1200
0300
,
0010
2000
3000
0001
0200
0310
2000
3000
,
0001
0000
0100
0020
0030
1000
0002
0003
,
0100
0020
0030
1000
0002
2003
3000
0100
,
0020
2030
3000
0001
0100
0020
0030
2000
,
3000
0001
0200
0300
0020
0030
1000
0002
,
0003
0100
0020
0030
2000
3002
0003
0200
,
0300
0001
2000
3002
0003
0200
0302
0003
,
2000
3002
0003
0200
0320
0030
2000
3000
,
0002
0003
0000
0200
0300
0010
2000
3002
,
0003
0200
0320
0230
0300
1111
0000
2202
,
3303
0002
0003
0210
2300
3001
0010
0002
,
0003
0200
0300
0002
0203
0300
0002
0203
,
0300
0020
0030
0002
0003
0110
0100
0200
,
0320
0030
0001
0200
0300
1100
0000
0000
,
0022
0233
0300
0100
1000
0002
0203
0320
,
0030
2000
3000
0001
0200
0300
0002
0003
,
0200
0300
0010
2000
3000
0001
0200
0300
,
0020
0030
1000
0002
0003
0200
0300
0020
,
0030
1000
0002
0003
0200
0320
0030
2000
,
3000
0001
0200
0320
0030
2000
3002
0003
,
0200
0000
0000
0000
0000
0000
0000
0000
0310
0000
0000
0000
0000
0000
0000
0000
2000
0000
0000
0000
0000
0000
0000
0000
3002
0000
0000
0000
0000
0000
0000
0000
0003
0000
0000
0000
0000
0000
0000
0000
1100
0000
0000
0010
0000
0000
0000
0000
1000
0000
0000
0000
0000
0000
0000
0000
0001
0000
0000
0000
0000
0000
0000
0000
,
0100
0020
0030
2000
3000
0001
0000
0100
,
0020
2030
3000
0001
0200
0300
0010
2000
,
3000
0001
0200
0320
0030
2000
3002
0003
,
0100
0020
0030
2000
3002
0003
0200
0300
,
0010
0000
1000
0002
0003
0100
0020
0030
,
0002
0003
0020
0030
0200
0300
1000
0200
,
0320
0030
0200
0301
2000
3002
0203
0300
,
0010
2000
3000
0001
0200
0300
0010
2000
,
3002
0003
0100
0020
2030
3002
0003
0000
,
0200
0300
0020
2030
3002
0003
0220
0330
,
0200
2300
3020
0030
0002
0003
0100
0020
,
2030
3000
0002
0203
0320
0030
0200
0322
,
0033
0002
2003
3100
0001
0010
2000
3002
,
0003
0200
0300
0000
0002
2003
3000
0000
,
0001
0200
0310
0000
1000
0002
0003
0100
,
0000
0010
2000
3002
0003
0200
0300
0002
,
0003
0000
1000
0020
0030
0100
0002
0003
,
2000
3000
0100
0020
0030
1000
0001
0200
,
0300
0010
2000
3000
0001
0020
0030
0200
,
0300
1000
0200
0300
0020
0030
0001
0200
,
0300
2000
3002
0003
0200
0320
0030
1000
,
0001
0200
0300
0010
2000
3000
0000
0000
,
0000
0200
0300
0001
2000
3002
0203
0300
,
0020
2030
3002
0003
0200
0300
0100
0000
,
1000
0002
2003
3220
0330
0020
2030
3000
,
0011
2000
3100
0000
0010
1000
0020
0032
,
0003
0200
0300
1000
0002
0003
0100
2000
,
3001
0200
0300
0010
1101
1101
1101
1101
,
1101
1101
1101
1101
1101
1101
1101
1101
,
1101
0000
0000
0000
,
0000
0000
0000
0000
0000
0000
0000
0000
0000
0000
0000
0000
0000
0000
0000
0000
0000
1000
0100
0010
0001
0000
0000
0000
0000
0000
0000
0000
0000
0000
0000
0000
0000
0000
0000
0000
0000
0000
0000
0000
0000
0000
0000
0000
0000
0000
0000
0000
,
0000
0000
0000
0000
,
0000
1110
0000
0000
,
0000
0000
0000
0000
,
0000
0000
0000
0000
0000
0000
1000
1000
,
1000
1111
0000
1111
1001
1001
1111
0000
,
1000
1000
1000
1111
0000
0000
0000
0000
;
